summaryrefslogtreecommitdiffstats
path: root/src/regtests/chdman/input/createcd_cue_audio_silence_wav_20_tracks/in.cue
blob: 93f442247743c9598807b4794c93d2eb509a5b07 (plain) (blame)
1
2
3
4
5
6
7
8
9
10
11
12
13
14
15
16
17
18
19
20
21
22
23
24
25
26
27
28
29
30
31
32
33
34
35
36
37
38
39
40
41
42
43
44
45
46
47
48
49
50
51
52
53
54
55
56
57
58
59
60
FILE "silence.wav" WAVE
TRACK 01 AUDIO
  INDEX 01 00:00:00
FILE "silence.wav" WAVE
TRACK 02 AUDIO
  INDEX 01 00:00:00
FILE "silence.wav" WAVE
TRACK 03 AUDIO
  INDEX 01 00:00:00
FILE "silence.wav" WAVE
TRACK 04 AUDIO
  INDEX 01 00:00:00
FILE "silence.wav" WAVE
TRACK 05 AUDIO
  INDEX 01 00:00:00
FILE "silence.wav" WAVE
TRACK 06 AUDIO
  INDEX 01 00:00:00
FILE "silence.wav" WAVE
TRACK 07 AUDIO
  INDEX 01 00:00:00
FILE "silence.wav" WAVE
TRACK 08 AUDIO
  INDEX 01 00:00:00
FILE "silence.wav" WAVE
TRACK 09 AUDIO
  INDEX 01 00:00:00
FILE "silence.wav" WAVE
TRACK 10 AUDIO
  INDEX 01 00:00:00
FILE "silence.wav" WAVE
TRACK 11 AUDIO
  INDEX 01 00:00:00
FILE "silence.wav" WAVE
TRACK 12 AUDIO
  INDEX 01 00:00:00
FILE "silence.wav" WAVE
TRACK 13 AUDIO
  INDEX 01 00:00:00
FILE "silence.wav" WAVE
TRACK 14 AUDIO
  INDEX 01 00:00:00
FILE "silence.wav" WAVE
TRACK 15 AUDIO
  INDEX 01 00:00:00
FILE "silence.wav" WAVE
TRACK 16 AUDIO
  INDEX 01 00:00:00
FILE "silence.wav" WAVE
TRACK 17 AUDIO
  INDEX 01 00:00:00
FILE "silence.wav" WAVE
TRACK 18 AUDIO
  INDEX 01 00:00:00
FILE "silence.wav" WAVE
TRACK 19 AUDIO
  INDEX 01 00:00:00
FILE "silence.wav" WAVE
TRACK 20 AUDIO
  INDEX 01 00:00:00